<?xml version="1.0" standalone="no"?>
<!DOCTYPE svg PUBLIC "-//W3C//DTD SVG 1.1//EN" "http://www.w3.org/Graphics/SVG/1.1/DTD/svg11.dtd" >
<svg xmlns="http://www.w3.org/2000/svg">
<metadata>Generated by IcoMoon</metadata>
<defs>
<font id="VC-Icons" horiz-adv-x="1024">
<font-face units-per-em="1024" ascent="960" descent="-64" />
<missing-glyph horiz-adv-x="1024" />
<glyph unicode="&#x20;" horiz-adv-x="512" d="" />
<glyph unicode="&#x2261;" glyph-name="mobile-menu" d="M74.668 822.856h874.666v-124.953h-874.666v124.953zM74.668 510.495h874.666v-124.97h-874.666v124.97zM74.668 198.096h874.666v-124.953h-874.666v124.953z" />
<glyph unicode="&#x22ee;" glyph-name="drag-dots" d="M619.59 448c0-59.421-48.17-107.59-107.59-107.59s-107.59 48.17-107.59 107.59c0 59.421 48.17 107.59 107.59 107.59s107.59-48.17 107.59-107.59zM619.59 820.411c0-59.421-48.17-107.59-107.59-107.59s-107.59 48.17-107.59 107.59c0 59.421 48.17 107.59 107.59 107.59s107.59-48.17 107.59-107.59zM619.59 75.591c0-59.421-48.17-107.59-107.59-107.59s-107.59 48.17-107.59 107.59c0 59.421 48.17 107.59 107.59 107.59s107.59-48.17 107.59-107.59z" />
<glyph unicode="&#x22ef;" glyph-name="more-dots" d="M512 340.41c-59.421 0-107.59 48.17-107.59 107.59s48.17 107.59 107.59 107.59c59.421 0 107.59-48.17 107.59-107.59s-48.17-107.59-107.59-107.59zM884.411 340.41c-59.421 0-107.59 48.17-107.59 107.59s48.17 107.59 107.59 107.59c59.421 0 107.59-48.17 107.59-107.59s-48.17-107.59-107.59-107.59zM139.591 340.41c-59.421 0-107.59 48.17-107.59 107.59s48.17 107.59 107.59 107.59c59.421 0 107.59-48.17 107.59-107.59s-48.17-107.59-107.59-107.59z" />
<glyph unicode="&#x2315;" glyph-name="search" horiz-adv-x="951" d="M658.286 475.428q0 105.714-75.143 180.857t-180.857 75.143-180.857-75.143-75.143-180.857 75.143-180.857 180.857-75.143 180.857 75.143 75.143 180.857zM950.857 0q0-29.714-21.714-51.429t-51.429-21.714q-30.857 0-51.429 21.714l-196 195.429q-102.286-70.857-228-70.857-81.714 0-156.286 31.714t-128.571 85.714-85.714 128.571-31.714 156.286 31.714 156.286 85.714 128.571 128.571 85.714 156.286 31.714 156.286-31.714 128.571-85.714 85.714-128.571 31.714-156.286q0-125.714-70.857-228l196-196q21.143-21.143 21.143-51.429z" />
<glyph unicode="&#x23f8;" glyph-name="row-layout" d="M92-32h360v960h-420v-960h60zM152 88v720h180v-720h-180zM932-32h-360v960h420v-960h-60zM872 88v720h-180v-720h180z" />
<glyph unicode="&#x25b4;" glyph-name="arrow-up" d="M775.22 340.565l-263.22 263.22-263.22-263.22c-17.844-17.844-5.212-48.35 20.025-48.35h486.389c25.237 0 37.87 30.506 20.025 48.35z" />
<glyph unicode="&#x25b8;" glyph-name="arrow-right" d="M404.565 184.78l263.22 263.22-263.22 263.22c-17.844 17.844-48.35 5.212-48.35-20.025v-486.389c0-25.237 30.506-37.87 48.35-20.025z" />
<glyph unicode="&#x25be;" glyph-name="expand" d="M248.78 555.435l263.22-263.22 263.22 263.22c17.844 17.844 5.212 48.35-20.025 48.35h-486.389c-25.237 0-37.87-30.506-20.025-48.35z" />
<glyph unicode="&#x25c4;" glyph-name="arrow-left" d="M619.435 711.22l-263.22-263.22 263.22-263.22c17.844-17.844 48.35-5.212 48.35 20.025v486.389c0 25.237-30.506 37.87-48.35 20.025z" />
<glyph unicode="&#x2661;" glyph-name="heart-stroke" d="M739.616 768c78.624 0 143.744-58.24 154.752-134.016l-382.24-438.976-382.496 438.976c11.008 75.776 76.128 134.016 154.752 134.016 64.512 0 123.36-69.248 123.36-69.248l104.256-110.752 104.256 110.752c0 0 58.88 69.248 123.36 69.248M739.616 896c-95.488 0-176-50.496-227.616-123.008-51.616 72.512-132.128 123.008-227.616 123.008-156.896 0-284.384-127.744-284.384-284.512v-23.488l512.256-588 511.744 588v23.488c0 156.768-127.488 284.512-284.384 284.512v0z" />
<glyph unicode="&#x270e;" glyph-name="edit" d="M320.892-0.215l639.258 639.21c25.772 25.772 31.447 56.233 5.659 81.989l-172.175 172.159c-25.74 25.756-65.886 28.488-91.673 2.716l-640.858-637.011c-28.698-27.373-22.409-27.826-22.442-45.95l-0.469-187.535c0.065-28.036 22.458-50.93 50.477-50.995l199.775 5.336c14.002-0.049 21.585 9.152 32.45 20.081zM773.893 775.89l74.664-74.697c11.932-11.948 6.289-30.477-5.691-42.442l-44.446-44.462-113.21 113.193 52.66 52.223c11.948 11.981 24.042 8.133 36.023-3.816zM237.755 53.495l-81.375 3.007c-12.984 0.032-22.976 9.442-23.055 22.458l1.778 92.935c0 6.435 0.211 9.184 13.889 22.927l0.016-0.032 453.664 450.817 113.516-113.516-463.816-463.816c-10.865-10.865-8.181-14.842-14.616-14.778z" />
<glyph unicode="&#x2710;" glyph-name="pen-alt-fill" d="M948.992 884.992c-99.872 100-262.112 100-361.984 0l-586.016-585.984-0.992-363.008h361.984l587.008 587.008c100 100 100 261.984 0 361.984zM307.616 64h-180.992v182.016c49.984 49.984 131.008 49.984 180.992 0s50.016-132.032 0-182.016zM856.128 613.504l-180.992 180.992c49.984 49.984 131.008 49.984 180.992 0s49.984-131.008 0-180.992z" />
<glyph unicode="&#x2714;" glyph-name="save" d="M496.783 176.777l527.215 527.237-108.612 108.589-512.011-511.989-294.788 294.788-108.589-108.589 403.376-403.42z" />
<glyph unicode="&#x2715;" glyph-name="add-thin" d="M64 503.552h896v-111.119h-896v111.119zM456.433 896h111.104v-896h-111.104v896z" />
<glyph unicode="&#x2716;" glyph-name="close" d="M64 135.363l760.637 760.637 135.139-135.139-760.412-760.861-135.363 135.363zM64 760.637l135.139 135.139 760.637-760.637-135.139-135.139-760.637 760.637z" />
<glyph unicode="&#x2717;" glyph-name="close-thin" d="M861.143 0.020l-797.107 797.107 98.855 98.855 797.107-797.107-98.855-98.855zM162.845 0.032l-98.842 98.842 797.107 797.107 98.842-98.842-797.107-797.107z" />
<glyph unicode="&#x2723;" glyph-name="move" d="M576 320v-192h128l-192-192-192 192h128v192zM448 576v192h-128l192 192 192-192h-128v-192zM384 384h-192v-128l-192 192 192 192v-128h192zM640 512h192v128l192-192-192-192v128h-192z" />
<glyph unicode="&#x2795;" glyph-name="add" d="M32.001 533.328h959.998v-170.658h-959.998v170.658zM426.659 927.986h170.658v-959.973h-170.658v959.973z" />
<glyph unicode="&#x2796;" glyph-name="remove" d="M32.001 533.328h959.998v-170.658h-959.998v170.658z" />
<glyph unicode="&#x293e;" glyph-name="undo" horiz-adv-x="1022" d="M900.936 840.968c-158.614 158.582-435.332 158.71-593.85 0l-179.094-179.222v170.23h-127.992v-383.976h383.976v127.992l-160.726-0.096 174.486 174.486c110.234 110.362 302.478 110.362 412.71-0.128 55.132-55.134 85.498-128.376 85.498-206.356 0-78.076-30.366-151.35-85.498-206.644l-96.506-96.474 90.49-90.458 96.506 96.25c79.258 79.516 123 185.046 123 297.326 0 112.216-43.742 217.714-123 297.070zM590.332-64l-90.492 90.618 90.556 90.458 90.49-90.618z" />
<glyph unicode="&#x293f;" glyph-name="redo" horiz-adv-x="1022" d="M121.064 840.968c158.614 158.582 435.332 158.71 593.85 0l179.094-179.222v170.23h127.992v-383.976h-383.976v127.992l160.726-0.096-174.486 174.486c-110.234 110.362-302.478 110.362-412.71-0.128-55.132-55.134-85.498-128.376-85.498-206.356 0-78.076 30.366-151.35 85.498-206.644l96.506-96.474-90.49-90.458-96.506 96.25c-79.258 79.516-123 185.046-123 297.326 0 112.216 43.742 217.714 123 297.070zM431.668-64l90.492 90.618-90.556 90.458-90.49-90.618z" />
<glyph unicode="&#xe900;" glyph-name="error" horiz-adv-x="1152" d="M1139.232 79.872l-480 832c-16.608 28.736-47.68 48.128-83.232 48.128s-66.624-19.392-83.232-48.128l-480-832c-8.096-14.080-12.768-30.432-12.768-47.872 0-52.992 43.008-96 96-96h960c52.992 0 96 43.008 96 96 0 17.44-4.64 33.792-12.768 47.872zM95.936 31.904l480.128 832 479.936-831.904-960.064-0.096z" />
<glyph unicode="&#xe901;" glyph-name="key" d="M620.291 299.094c-6.728 16.669-12.558 35.711-17.828 58.211-7.395 31.589-38.431 51.066-69.338 43.501-30.898-7.56-49.951-39.296-42.554-70.882 6.679-28.528 14.322-53.283 23.357-75.678 24.156-59.879 80.361-98.669 143.319-98.819h181.573c0.123 0 0.242 0 0.368 0 61.408 0 116.909 37.131 141.458 94.685 19.882 46.611 43.54 119.122 43.353 199.875-0.187 80.541-24.050 151.934-44.041 197.649-24.628 56.306-80.096 92.785-141.45 92.935h-179.404c-0.13 0-0.256 0-0.389 0-64.722 0-121.18-38.987-143.898-99.407-3.023-8.039-6.719-18.163-10.577-29.971h-347.892c-15.553 0-30.441-6.437-41.277-17.842l-98.822-104.055c-21.766-22.918-21.657-59.405 0.247-82.187l100.674-104.714c10.815-11.25 25.597-17.587 41.029-17.587h172.584c31.773 0 57.528 26.329 57.528 58.809s-25.755 58.809-57.528 58.809h-148.462l-44.377 46.156 42.732 44.997h366.715c26.5 0 49.572 18.507 55.877 44.821 4.654 19.427 10.496 38.108 18.941 60.567 5.571 14.808 19.551 23.994 36.642 23.994 0.040 0 0.078 0 0.115 0h179.401c16.269-0.038 30.274-8.977 36.547-23.321 15.443-35.32 33.884-90.003 34.022-149.926 0.141-60.361-18.282-116.294-33.763-152.587-6.242-14.637-20.365-24.079-36.13-24.079-0.031 0-0.063 0-0.095 0h-181.573c-15.912 0.038-30.818 10.506-37.088 26.049zM819.2 448c0-28.515-22.923-51.63-51.2-51.63s-51.2 23.115-51.2 51.63c0 28.515 22.923 51.63 51.2 51.63s51.2-23.115 51.2-51.63z" />
<glyph unicode="&#xe902;" glyph-name="eye-on" horiz-adv-x="1336" d="M1319.57 481.22c-2.411 4.767-59.563 118.14-166.47 232.225-145.209 154.47-312.995 236.335-485.273 236.335s-340.064-81.865-485.273-236.664c-106.852-114.030-164.059-227.403-166.415-232.225-7.891-15.398-7.891-33.535 0-48.988 2.411-4.767 59.563-118.14 166.415-232.171 145.209-154.47 312.995-236.335 485.273-236.335s340.064 81.865 485.273 236.664c106.852 114.030 164.059 227.403 166.47 232.171 7.891 15.069 7.891 33.535 0 48.988zM1071.234 272.667c-125.373-132.551-260.993-199.677-403.408-199.677s-278.090 67.125-403.408 199.677c-68.495 72.605-115.4 146.579-136.99 183.895 21.59 36.987 68.166 110.962 136.99 183.895 125.318 132.551 260.938 199.677 403.408 199.677s278.090-67.125 403.408-199.677c68.495-72.933 115.4-146.579 136.99-183.895-21.918-36.987-68.495-110.962-136.99-183.895zM667.826 675.746c-120.88 0-219.184-98.304-219.184-219.184s98.304-219.184 219.184-219.184c120.88 0 219.184 98.304 219.184 219.184s-98.304 219.184-219.184 219.184zM667.826 346.97c-60.276 0-109.592 49.316-109.592 109.592s49.316 109.592 109.592 109.592c60.276 0 109.592-49.316 109.592-109.592s-49.316-109.592-109.592-109.592z" />
<glyph unicode="&#xe903;" glyph-name="copy-icon" horiz-adv-x="853" d="M698.182 866.909h-46.545c0 51.2-41.891 93.091-93.091 93.091h-279.273c-51.2 0-93.091-41.891-93.091-93.091h-46.545c-77.079 0-139.636-62.557-139.636-139.636v-651.636c0-77.079 62.557-139.636 139.636-139.636h558.545c77.079 0 139.636 62.557 139.636 139.636v651.636c0 77.079-62.557 139.636-139.636 139.636zM279.273 866.909h279.273v-93.091h-279.273v93.091zM744.727 75.636c0-25.6-20.945-46.545-46.545-46.545h-558.545c-25.6 0-46.545 20.945-46.545 46.545v651.636c0 25.6 20.945 46.545 46.545 46.545h46.545c0-51.2 41.891-93.091 93.091-93.091h279.273c51.2 0 93.091 41.891 93.091 93.091h46.545c25.6 0 46.545-20.945 46.545-46.545v-651.636z" />
<glyph unicode="&#xe904;" glyph-name="paste-icon" horiz-adv-x="864" d="M785.455 576h-87.273v165.818c0 24-19.636 43.636-43.636 43.636h-43.636c0-48-39.273-87.273-87.273-87.273h-261.818c-48 0-87.273 39.273-87.273 87.273h-43.636c-24 0-43.636-19.636-43.636-43.636v-610.909c0-24 19.636-43.636 43.636-43.636h93.091v-87.273h-93.091c-72.262 0-130.909 58.647-130.909 130.909v610.909c0 72.262 58.647 130.909 130.909 130.909h43.636c0 48 39.273 87.273 87.273 87.273h261.818c48 0 87.273-39.273 87.273-87.273h43.636c72.262 0 130.909-58.647 130.909-130.909v-165.818zM261.818 872.727v0.087-87.36h261.818v87.273h-261.818zM802.944 512h-471.968c-39.808 0-42.976-8.864-42.976-48.672v-478.688c0-39.776 21.28-48.64 61.056-48.64h472c39.776 0 42.944 8.864 42.944 48.64v478.688c0 39.776-21.28 48.672-61.056 48.672zM413.472 32c-30.56 0-29.472 9.792-29.472 40.384v303.2c0 30.592-3.2 40.384 27.392 40.384h327.104c30.592 0 29.504-9.792 29.504-40.384v-303.2c0-30.592 3.2-40.384-27.392-40.384h-327.136z" />
<glyph unicode="&#xe905;" glyph-name="star" d="M512 893.44l122.266-344.166h328.294l-267.878-202.138 95.795-354.714-278.477 212.685-278.426-212.685 95.744 354.714-267.93 202.138h328.294l122.317 344.166z" />
<glyph unicode="&#xe906;" glyph-name="lock-thin" horiz-adv-x="777" d="M674.877 43.6v482.997h-577.806v-482.997h577.806zM236.997 718.477v-97.071h297.955v97.071c0 81.278-67.7 148.978-148.978 148.978s-148.978-67.7-148.978-148.978v0zM674.877 621.406c51.906 0 97.071-42.902 97.071-94.808v-482.997c0-51.906-45.165-94.808-97.071-94.808h-577.806c-51.906 0-97.071 42.902-97.071 94.808v482.997c0 51.906 45.165 94.808 97.071 94.808h47.38v97.071c0 133.184 108.339 241.523 241.523 241.523s241.523-108.339 241.523-241.523v-97.071h47.38z" />
<glyph unicode="&#xe907;" glyph-name="eye-off" horiz-adv-x="1336" d="M565.741 838.736c31.179 7.562 65.755 11.672 101.044 11.672h1.37c142.47 0 278.090-67.125 403.079-199.677 68.495-72.605 115.072-146.579 136.661-183.567-29.425-51.015-61.974-97.592-98.633-141.1-19.507-22.96-16.768-57.536 6.521-77.043 10.302-8.548 22.96-12.987 35.289-12.987 15.398 0 31.179 6.521 41.755 19.507 47.946 56.878 89.043 117.483 126.031 185.594 8.548 15.781 8.877 34.576 0.658 50.686-2.411 4.767-59.563 118.14-166.47 232.225-145.209 154.141-312.995 235.952-485.273 235.952h-1.37c-43.508 0-87.345-5.151-127.072-14.74-29.425-7.178-47.289-36.987-40.056-66.084 7.562-29.425 36.987-47.618 66.413-40.439h0.055zM1032.548 179.486c-0.329 0.329-764.404 764.404-764.404 764.404-21.206 21.206-56.166 21.206-77.427 0s-21.206-56.166 0-77.427l69.865-69.865c-98.304-84.605-180.169-186.635-243.842-303.46-8.548-15.781-8.877-34.576-1.041-50.686 2.411-4.767 59.618-118.14 166.799-232.171 145.209-154.799 312.995-236.664 485.602-236.664 115.784 2.027 224.664 34.905 318.858 96.222l80.112-80.167c10.63-10.63 24.658-16.11 38.686-16.11s28.11 5.48 38.686 16.11c21.918 21.206 21.918 56.166 0.329 77.427l-112.222 112.387zM559.604 497.303l138.689-138.689c-10.959-3.781-22.576-5.48-34.576-5.48-60.276 0-109.592 49.316-109.592 109.592 0 12 2.082 23.617 5.48 34.576zM667.826 83.264c-142.47 0-278.090 67.454-403.408 199.677-68.495 72.605-115.072 146.25-136.661 183.567 56.166 96.934 127.072 181.484 210.636 252.39l139.73-139.73c-21.59-34.576-33.535-75.016-33.535-116.441 0-120.88 98.304-219.184 219.184-219.184 41.426 0 81.865 12 116.441 33.535l127.401-127.401c-72.276-42.138-154.141-65.098-239.732-66.413h-0.055z" />
<glyph unicode="&#xe908;" glyph-name="brush-alt" horiz-adv-x="1022" d="M384 192c0 70.752-57.376 128-128 128-70.752 0-128-57.248-128-128v-0.256c0-94.624-51.488-177.12-128-221.376l0.512-0.384c37.504-21.6 80.992-33.984 127.488-33.984 141.376 0 256 114.624 256 256v0zM986.432 922.496c-49.984 49.984-131.008 49.984-180.992 0l-483.936-484c88.256-23.616 157.504-92.736 180.992-181.12l483.936 484.128c50.016 49.984 50.016 131.008 0 180.992z" />
<glyph unicode="&#xe909;" glyph-name="hub-shop" d="M960 64h-64v128c0 35.328-28.608 64-64 64s-64-28.672-64-64v-128h-512v128c0 35.328-28.608 64-64 64s-64-28.672-64-64v-128h-64c-35.392 0-64-28.672-64-64s28.608-64 64-64h896c35.392 0 64 28.672 64 64s-28.608 64-64 64zM960 960h-896c-35.392 0-64-28.672-64-64v-384c0-70.656 57.28-128 128-128s128 57.344 128 128c0-70.656 57.344-128 128-128s128 57.344 128 128c0-70.656 57.344-128 128-128s128 57.344 128 128c0-70.656 57.344-128 128-128s128 57.344 128 128v384c0 35.328-28.608 64-64 64z" />
<glyph unicode="&#xe90a;" glyph-name="download" horiz-adv-x="781" d="M329.007 144.021v755.267c0 33.53 27.174 60.712 60.711 60.712 33.53 0 60.711-27.196 60.711-60.712v-755.514l225.618 225.618c23.704 23.704 62.135 23.705 85.85-0.009 23.709-23.709 23.712-62.147 0.009-85.85l-329.144-329.144c-11.851-11.851-27.382-17.777-42.915-17.778-15.543 0.003-31.076 5.928-42.926 17.778l-329.144 329.144c-23.704 23.704-23.705 62.135 0.009 85.85 23.709 23.709 62.147 23.712 85.85 0.009l225.371-225.371z" />
<glyph unicode="&#xe90b;" glyph-name="chevron-up" d="M512 758.319l-517.198-517.198 103.44-103.44 413.758 413.758 413.758-413.758 103.44 103.44z" />
<glyph unicode="&#xe90c;" glyph-name="chevron-down" d="M512 137.681l-517.198 517.198 103.44 103.44 413.758-413.758 413.758 413.758 103.44-103.44z" />
<glyph unicode="&#xe90d;" glyph-name="chevron-right" horiz-adv-x="658" d="M663.198 448l-517.198-517.198-103.44 103.44 413.758 413.758-413.758 413.758 103.44 103.44z" />
<glyph unicode="&#xe90e;" glyph-name="chevron-left" horiz-adv-x="658" d="M-5.198 448l517.198-517.198 103.44 103.44-413.758 413.758 413.758 413.758-103.44 103.44z" />
<glyph unicode="&#xe90f;" glyph-name="plug" d="M902.254 728.131l-131.542-131.148-109.502 109.814 131.192 131.148c27.988 27.978 27.988 73.093 0 101.071s-73.118 27.978-101.106 0l-131.192-131.148-48.629 48.612c-13.294 13.29-56.325 39.169-101.106 0l-204.31-204.24c-123.146-123.104-138.539-314.404-45.48-454.295l-139.589-139.891c-27.988-27.978-27.988-73.093 0-101.071s73.118-27.978 101.106 0l139.589 139.541c58.774-39.169 127.344-60.153 199.412-60.153 96.208 0 186.818 37.421 255.038 105.617l204.31 204.24c27.988 27.978 27.988 73.093 0 101.071l-48.629 48.612 131.192 131.148c27.988 27.978 27.988 73.093 0 101.071-27.638 27.978-73.118 27.978-100.756 0zM615.030 243.060c-41.282-41.268-95.858-63.65-153.932-63.65s-113 22.732-153.932 63.65c-85.013 84.984-85.013 223.126 0 307.76l153.932 153.88 307.865-307.76-153.932-153.88z" />
<glyph unicode="&#xe910;" glyph-name="thumbs-down" horiz-adv-x="1331" d="M412.315-64c8.546 0 16.807 2.772 23.683 7.85l4.879 4.234 291.482 295.12c51.953 52.589 83.037 124.85 86.515 200.040l0.327 14.128v203.96c0 160.839-122.726 292.419-275.741 298.452l-10.98 0.216h-259.080c-42.524 0-82.188-20.541-107.778-55.362l-5.264-7.678-133.159-222.668c-17.56-27.376-27.199-59.040-27.199-90.416 0-25.074 2.054-53.867 16.13-81.321l5.862-10.223 18.962-31.792v-12.584c0-90.801 68.502-165.326 154.483-170.393l9.277-0.275 154.241-0.040 5.76-9.832-75.559-153.624c-8.321-17.168-12.641-36.168-12.641-55.208 0-64.768 48.492-117.979 109.636-122.301l8.044-0.283h18.121zM1208.32 294.4c65.050 0 118.45 51.592 122.618 116.606l0.262 8.194v416c0 66.066-50.798 120.301-114.812 124.534l-8.068 0.266h-163.841c-65.050 0-118.45-51.592-122.618-116.606l-0.262-8.194v-416c0-66.066 50.798-120.301 114.812-124.534l8.068-0.266h163.841zM1196.372 396.8h-129.708c-16.517 0-30.172 12.58-32.175 28.807l-0.253 4.127v380.532c0 16.775 12.387 30.643 28.364 32.678l4.064 0.257h129.708c16.517 0 30.172-12.58 32.175-28.807l0.253-4.127v-380.532c0-16.775-12.387-30.643-28.364-32.678l-4.064-0.257zM399.379 40.527c-18.489 0-30.002 5.142-30.002 24.86 0 3.679 0.533 7.359 1.577 10.838l1.947 5.041 72.492 151.578c13.273 27.602 15.188 68.124 0 94.562-13.886 24.274-49.81 35.842-76.017 38.259l-7.213 0.336-144.599 0.038c-40.073 0.036-73.112 32.996-76.479 74.862l-0.283 7.056v23.762c0 5.731-1.118 11.372-3.274 16.567l-2.5 5.033-24.188 41.522c-6.188 9.961-8.438 22.28-8.438 43.599 0 11.434 3.255 23.811 9.288 35.513l3.949 6.927 124.875 213.799c7.645 12.217 20.631 20.603 35.113 22.509l6.287 0.412h242.885c102.652 0 186.758-86.395 191.761-194.593l0.243-10.205v-195.805c0-51.072-18.267-100.902-50.481-138.44l-7.68-8.44-259.262-269.59z" />
<glyph unicode="&#xe911;" glyph-name="thumbs-up" horiz-adv-x="1331" d="M918.885 960c-8.546 0-16.807-2.772-23.683-7.85l-4.879-4.234-291.482-295.12c-51.953-52.589-83.037-124.85-86.515-200.040l-0.327-14.128v-203.96c0-160.839 122.726-292.419 275.741-298.452l10.98-0.216h259.080c42.524 0 82.188 20.541 107.778 55.362l5.264 7.678 133.159 222.668c17.56 27.376 27.199 59.040 27.199 90.416 0 25.074-2.054 53.867-16.13 81.321l-5.862 10.223-18.962 31.792v12.584c0 90.801-68.502 165.326-154.483 170.393l-9.277 0.275-154.241 0.040-5.76 9.832 75.559 153.624c8.321 17.168 12.641 36.168 12.641 55.208 0 64.768-48.492 117.979-109.636 122.301l-8.044 0.283h-18.121zM122.88 601.6c-65.050 0-118.45-51.592-122.618-116.606l-0.262-8.194v-416c0-66.066 50.798-120.301 114.812-124.534l8.068-0.266h163.841c65.050 0 118.45 51.592 122.618 116.606l0.262 8.194v416c0 66.066-50.798 120.301-114.812 124.534l-8.068 0.266h-163.841zM134.828 499.2h129.708c16.517 0 30.172-12.58 32.175-28.807l0.253-4.127v-380.532c0-16.775-12.387-30.643-28.364-32.678l-4.064-0.257h-129.708c-16.517 0-30.172 12.58-32.175 28.807l-0.253 4.127v380.532c0 16.775 12.387 30.643 28.364 32.678l4.064 0.257zM931.821 855.473c18.489 0 30.002-5.142 30.002-24.86 0-3.679-0.533-7.359-1.577-10.838l-1.947-5.041-72.492-151.578c-13.273-27.602-15.188-68.124 0-94.563 13.886-24.274 49.81-35.842 76.017-38.259l7.213-0.336 144.599-0.038c40.073-0.036 73.112-32.996 76.479-74.862l0.283-7.056v-23.762c0-5.731 1.118-11.372 3.274-16.567l2.5-5.033 24.188-41.522c6.188-9.961 8.438-22.28 8.438-43.599 0-11.434-3.255-23.811-9.288-35.513l-3.949-6.927-124.875-213.799c-7.645-12.217-20.631-20.603-35.113-22.509l-6.287-0.412h-242.885c-102.652 0-186.758 86.395-191.761 194.593l-0.243 10.205v195.805c0 51.072 18.267 100.902 50.481 138.44l7.68 8.44 259.262 269.59z" />
<glyph unicode="&#xe912;" glyph-name="unlock-fill" horiz-adv-x="740" d="M643.294 519.901h-15.252v186.965c0 139.59-115.864 253.134-258.264 253.134s-258.264-113.545-258.264-253.134v-14.325c0-38.125 31.536-69.035 70.434-69.035s70.434 30.912 70.434 69.035v14.325c0 63.44 52.672 115.063 117.397 115.063s117.395-51.623 117.395-115.063v-186.965h-390.911c-53.17 0-96.262-42.237-96.262-94.352v-395.199c0-52.114 43.091-94.35 96.262-94.35h547.032c53.17 0 96.262 42.235 96.262 94.35v395.202c0 52.112-43.091 94.35-96.262 94.35z" />
<glyph unicode="&#xe913;" glyph-name="lock-fill" horiz-adv-x="740" d="M643.294 519.901h-15.252v186.965c0 139.59-115.864 253.134-258.264 253.134s-258.264-113.545-258.264-253.134v-14.325c0-38.125-38.897-386.596 0-386.596 13.343 0 130.232-59.095 140.867 0 20.367 113.173 0 361.551 0 386.596v14.325c0 63.44 52.672 115.063 117.397 115.063s117.395-51.623 117.395-115.063v-186.965h-390.911c-53.17 0-96.262-42.237-96.262-94.352v-395.199c0-52.114 43.091-94.35 96.262-94.35h547.032c53.17 0 96.262 42.235 96.262 94.35v395.202c0 52.112-43.091 94.35-96.262 94.35z" />
<glyph unicode="&#xe914;" glyph-name="lamp" horiz-adv-x="801" d="M400.696 960c220.944 0 400.696-180.087 400.696-401.441 0-157.282-90.756-293.712-222.555-359.517l-0.054-134.875c0-32.274-39.12-60.338-96.258-74.28-13.638-31.699-45.142-53.886-81.829-53.886s-68.192 22.187-81.829 53.874c-54.323 13.267-92.359 39.286-95.976 69.553l-0.282 4.739-0.009 134.853c-131.823 65.796-222.6 202.239-222.6 359.539 0 221.354 179.752 401.441 400.696 401.441zM583.871 601.863c-17.387 0-31.757-13.21-34.032-30.347l-0.314-4.764v-47.197l-118.981-37.677c-7.285-2.307-14.728-3.767-22.214-4.386l-7.497-0.338c-7.856-0.035-15.497 0.791-22.968 2.476l-7.416 1.971-118.583 36.368v48.782c0 19.391-15.378 35.111-34.345 35.111-17.387 0-31.757-13.21-34.032-30.347l-0.314-4.764v-74.904c0-13.782 7.861-26.115 19.811-31.815l4.666-1.817 143.060-43.875 7.79-2.173 7.848-1.794 0.002-241.954c11.549-0.823 23.049-1.237 34.343-1.237 11.524 0 22.982 0.432 34.367 1.288l-0.021 242.175 7.943 1.883 7.881 2.272 143.167 45.336c12.784 4.047 21.949 15.24 23.828 28.485l0.356 5.053v73.079c0 19.391-15.378 35.111-34.345 35.111z" />
<glyph unicode="&#xe915;" glyph-name="forward" horiz-adv-x="970" d="M942.263 678.728l-339.537 265.821c-21.924 17.109-51.804 20.299-76.735 8.12-25.029-12.083-40.938-37.408-40.938-65.15v-177.858c-274.831-46.205-485.053-284.38-485.053-571.273v-105.724c0-53.358 43.461-96.662 97.011-96.662s97.011 43.305 97.011 96.662v105.724c0 179.598 124.173 329.715 291.032 372.923v-155.433c0-27.742 15.91-53.068 40.938-65.15 10.089-4.93 20.954-7.346 31.819-7.346 16.007 0 31.916 5.22 44.916 15.466l339.537 265.821c17.656 13.726 27.842 34.798 27.842 57.031s-10.186 43.305-27.842 57.031z" />
<glyph unicode="&#xe916;" glyph-name="swap" horiz-adv-x="740" d="M169.175 379.176c21.173 23.499 55.503 23.499 76.673 0 21.173-23.503 21.173-61.61 0-85.109v0l-60.795-67.484h488.908c29.942 0 54.216-26.945 54.216-60.182s-24.274-60.182-54.216-60.182v0h-488.908l60.795-67.484c21.173-23.503 21.173-61.61 0-85.109-21.177-23.507-55.507-23.499-76.673 0v0l-153.338 170.21c-21.365 23.683-20.866 61.995 0 85.129v0zM482.332 942.373c21.177 23.503 55.503 23.503 76.673 0v0l153.339-170.208c20.722-22.985 21.499-61.28 0-85.128v0l-153.339-170.208c-21.173-23.503-55.5-23.507-76.673 0-21.173 23.503-21.173 61.609 0 85.108v0l60.795 67.483h-488.91c-29.942 0-54.217 26.945-54.217 60.181s24.275 60.181 54.217 60.181v0h488.91l-60.795 67.483c-21.173 23.503-21.173 61.609 0 85.108z" />
<glyph unicode="&#xe917;" glyph-name="question" d="M512 960c282.968 0 512-228.994 512-512 0-282.968-228.994-512-512-512-282.968 0-512 228.994-512 512 0 282.968 228.994 512 512 512zM512 179.81c-40.396 0-73.143-32.747-73.143-73.143s32.747-73.143 73.143-73.143c40.396 0 73.143 32.747 73.143 73.143s-32.747 73.143-73.143 73.143zM512 813.714c-120.993 0-219.429-99.998-219.429-222.912 0-30.778 24.56-55.728 54.857-55.728 29.982 0 54.345 24.432 54.849 54.768l0.023 2.8c0.971 60.611 49.808 109.616 109.7 109.616 60.496 0 109.714-49.999 109.714-111.456 0-60.842-48.238-110.455-107.903-111.441l-2.756-0.023c-29.544-0.507-53.4-24.738-53.904-54.75l-0.008-0.97v-139.32l0.008-0.96c0.504-30.336 24.867-54.768 54.849-54.768s54.345 24.432 54.849 54.768l0.008 0.96v90.644l2.829 0.763c93.1 25.793 161.743 112.454 161.743 215.096 0 122.913-98.436 222.912-219.429 222.912z" />
<glyph unicode="&#xe918;" glyph-name="close-modern" d="M994.718 785.903l-337.903-337.903 337.903-337.903-144.815-144.815-337.903 337.903-337.903-337.903-144.815 144.815 337.951 337.951-337.951 337.854 144.815 144.815 337.951-337.854 337.854 337.854z" />
<glyph unicode="&#xe919;" glyph-name="link-modern" d="M957.836 880.603l-34.901 30.488c-81.281 71.18-205.746 63.8-277.798-16.492l-99.882-111.282c-22.544-25.121-20.201-63.688 5.226-85.973l9.374-8.214c25.515-22.34 64.448-20.034 87.087 5.168l99.875 111.279c22.279 24.8 60.872 27.083 85.999 5.116l34.858-30.541c25.134-21.995 27.501-60.101 5.191-84.915l-218.399-243.314c-18.484-20.627-48.731-26.189-73.554-13.522-27.144 13.843-60.25 7.761-80.518-14.813l-1.703-1.898c-13.714-15.274-19.431-35.552-15.685-55.634 3.749-20.072 16.403-37.003 34.717-46.457 28.964-14.949 60.243-22.187 91.214-22.187 54.883 0 108.815 22.724 147.241 65.517l218.385 243.286c71.971 80.183 64.48 203.257-16.728 274.389zM472.991 198.6l-9.386 8.222c-25.429 22.274-64.452 19.933-86.976-5.196l-99.733-111.271c-22.266-24.794-60.791-27.094-85.871-5.14l-34.871 30.583c-25.115 21.988-27.473 60.064-5.178 84.886l218.167 243.302c18.087 20.195 47.847 25.97 72.376 14.056 28.189-13.693 62.419-7.035 83.287 16.248l0.784 0.872c13.406 14.964 19.047 34.823 15.482 54.487-3.565 19.668-15.828 36.352-33.65 45.781-80.58 42.644-179.207 25.195-239.843-42.452l-218.181-243.257c-71.907-80.185-64.427-203.258 16.682-274.363l34.864-30.531c37.357-32.743 83.905-48.827 130.298-48.827 54.339 0 108.451 22.079 147.259 65.34l99.747 111.271c22.566 25.192 20.251 63.634-5.256 85.988z" />
<glyph unicode="&#xe91a;" glyph-name="pencil-modern" d="M971.41 821.641l-92.040 92.237c-32.867 26.357-72.318 46.121-111.763 46.121-26.295 0-52.595-13.178-72.318-32.943l-124.908-125.175-469.302-463.989c-6.572-6.592-13.15-19.765-19.723-26.351l-78.89-289.89c-6.578-19.765 0-46.121 19.723-65.886 13.15-13.178 26.295-19.765 46.023-19.765 6.572 0 13.15 0 19.723 0l289.271 79.059c13.15 0 19.723 6.592 26.295 19.765l594.204 595.756c13.15 13.173 26.295 39.524 26.295 72.467 0 39.535-19.717 79.064-52.59 118.594zM324.605 140.24l-157.786-46.121 46.017 158.124 403.557 417.868 118.341-118.594-410.129-411.276zM826.775 643.758l-118.341 118.594 65.745 65.886c6.578 0 6.578-6.586 13.15-13.178l92.040-92.237c6.578-6.586 6.578-13.178 13.15-13.178l-65.745-65.886z" />
<glyph unicode="&#xe91b;" glyph-name="plug-modern" d="M948.868 284.825c3.74 32.013-7.121 63.636-29.561 86.073l-68.487 68.487 127.279 127.279c28.118 28.118 28.692 73.131 1.283 100.54s-72.423 26.834-100.54-1.283l-127.279-127.279-148.885 148.885 127.279 127.279c28.118 28.118 28.692 73.131 1.283 100.54s-72.423 26.834-100.54-1.283l-127.279-127.279-68.487 68.487c-41.017 41.211-108.534 40.503-150.806-1.579-5.461-5.437-10.341-11.43-14.553-17.872l-114.061-174.608c-92.114-141.956-85.77-324.381 15.81-454.668l-129.316-129.316c-28.118-28.118-28.692-73.131-1.283-100.54s72.423-26.834 100.54 1.283l129.316 129.316c130.183-101.542 312.467-107.986 454.414-16.064l174.863 114.316c27.319 17.945 45.342 47.101 49.012 79.285zM649.359 210.134c-99.267-65.098-228.768-53.136-310.755 28.704l-35.733 35.733c-81.793 81.885-93.856 211.232-28.959 310.5l89.718 137.857 423.331-423.331-137.603-89.463z" />
<glyph unicode="&#xe91c;" glyph-name="bell" horiz-adv-x="916" d="M605.164 68.77c-15.401-75.634-82.45-132.77-162.599-132.77s-147.197 57.135-162.599 132.77v0zM442.566 960c167.345 0 309.796-150.518 309.796-306.257v0-123.387c0-87.584 38.37-170.255 105.286-226.815 17.614-15.091 27.483-36.512 27.483-59.171 0-42.708-34.741-77.449-77.449-77.449v0h-730.233c-42.708 0-77.449 34.741-77.449 77.449 0 22.659 9.869 44.080 27.085 58.817 67.314 56.914 105.685 139.585 105.685 227.169v0 123.387c0 155.739 142.451 306.257 309.796 306.257z" />
<glyph unicode="&#xe91d;" glyph-name="exit-top-right" d="M899.988 439.179h-70.639c-14.626 0-26.487-11.86-26.487-26.49v-322.065c0-17.095-13.915-31.004-31.010-31.004h-617.239c-17.091 0-30.993 13.909-30.993 31.004v617.223c0 17.099 13.902 31.011 30.993 31.011h338.559c14.63 0 26.49 11.86 26.49 26.49v70.639c0 14.629-11.861 26.49-26.49 26.49h-338.559c-85.255 0-154.613-69.367-154.613-154.629v-617.223c0-85.265 69.361-154.624 154.613-154.624h617.239c85.259 0 154.624 69.365 154.624 154.624v322.062c0.006 14.633-11.856 26.493-26.487 26.493zM997.348 960h-282.647c-14.717 0-26.647-11.931-26.647-26.647v-71.060c0-14.717 11.93-26.648 26.647-26.648h97.007l-365.049-365.045c-10.407-10.407-10.407-27.277 0-37.687l50.247-50.25c4.999-5.001 11.774-7.805 18.845-7.805 7.067 0 13.846 2.805 18.841 7.805l365.049 365.053v-97.008c0-14.717 11.935-26.647 26.647-26.647h71.060c14.717 0 26.647 11.931 26.647 26.647v282.644c0 14.717-11.93 26.647-26.647 26.647z" />
<glyph unicode="&#xe91e;" glyph-name="link-enabled" d="M712.286 202.416c28.892-2.528 50.842-26.233 51.895-54.483l-0.18-7.147-9.916-113.345c-2.738-31.299-30.331-54.453-61.631-51.714-28.892 2.528-50.842 26.233-51.895 54.483l0.18 7.147 9.916 113.345c2.738 31.299 30.331 54.453 61.631 51.714zM294.737 523.536c53.899 60.131 141.567 75.641 213.194 37.735 15.842-8.381 26.742-23.212 29.911-40.694 2.716-14.982-0.58-30.092-9.081-42.479l-5.378-6.729c-16.863-18.815-43.542-25.416-67.079-17.316l-6.954 2.873c-19.623 9.531-43.013 6.326-59.215-7.496l-5.119-4.998-193.926-216.268c-18.293-20.367-17.915-50.772-0.189-70.702l4.792-4.752 30.996-27.185c20.578-18.014 51.34-17.657 71.518-0.161l4.812 4.73 88.652 98.908c18.481 20.619 49.459 23.978 71.894 8.8l5.418-4.181 8.344-7.309c20.929-18.342 24.292-48.868 8.909-71.069l-4.237-5.365-88.664-98.908c-34.496-38.454-82.596-58.080-130.897-58.080-37.114 0-74.34 11.58-105.622 35.114l-10.199 8.288-30.99 27.139c-69.324 60.774-78.138 164.256-21.891 235.49l7.062 8.388 193.939 216.228zM1016.847 300.12c2.738-31.299-20.415-58.892-51.714-61.631l-113.345-9.916c-31.299-2.738-58.892 20.415-61.631 51.714s20.415 58.892 51.714 61.631l113.345 9.916c31.299 2.738 58.892-20.415 61.631-51.714zM630.344 844.977c61.583 68.626 166.24 77.33 238.43 21.65l8.502-6.991 31.022-27.1c69.409-60.797 78.234-164.281 21.938-235.513l-7.068-8.388-194.12-216.254c-34.156-38.038-82.096-58.237-130.881-58.237-27.53 0-55.333 6.434-81.079 19.722-16.279 8.404-27.527 23.453-30.86 41.295-2.854 15.301 0.472 30.729 9.157 43.375l4.785 6.078 1.514 1.687c16.378 18.242 42.187 24.368 64.872 16.086l6.699-2.919c19.858-10.134 43.622-7.142 60.154 6.924l5.227 5.096 194.132 216.279c18.306 20.36 17.921 50.788 0.181 70.726l-4.796 4.754-30.985 27.148c-20.617 18.024-51.433 17.682-71.628 0.184l-4.815-4.731-88.778-98.915c-18.576-20.679-49.492-24.016-71.977-8.788l-5.434 4.194-8.332 7.301c-20.863 18.285-24.243 48.902-8.878 71.067l4.232 5.353 88.784 98.917zM246.825 610.987c2.738-31.299-20.415-58.892-51.714-61.631l-113.345-9.916c-31.299-2.738-58.892 20.415-61.631 51.714s20.415 58.892 51.714 61.631l113.345 9.916c31.299 2.738 58.892-20.415 61.631-51.714zM344.529 915.548c28.892-2.528 50.842-26.233 51.895-54.483l-0.18-7.147-9.916-113.345c-2.738-31.299-30.331-54.453-61.631-51.714-28.892 2.528-50.842 26.233-51.895 54.483l0.18 7.147 9.916 113.345c2.738 31.299 30.331 54.453 61.631 51.714z" />
<glyph unicode="&#xe91f;" glyph-name="refresh" d="M870.4 806.4c-89.6 96-217.6 153.6-358.4 153.6-281.6 0-512-230.4-512-512s230.4-512 512-512c236.8 0 435.2 166.4 492.8 384h-134.4c-51.2-147.2-192-256-358.4-256-211.2 0-384 172.8-384 384s172.8 384 384 384c108.8 0 198.4-44.8 268.8-115.2l-204.8-204.8h448v448l-153.6-153.6z" />
<glyph unicode="&#xe920;" glyph-name="chevron-thick" horiz-adv-x="1168" d="M146.424 64.039l437.588 436.916 437.588-436.916 165.763 165.519-603.363 602.403-603.363-602.403z" />
<glyph unicode="&#xe921;" glyph-name="checked-circle" horiz-adv-x="1075" d="M529.968 960c-282.573 0-512-229.427-512-512s229.427-512 512-512c282.573 0 512 229.427 512 512s-229.427 512-512 512zM529.968 857.6c226.048 0 409.6-183.552 409.6-409.6s-183.552-409.6-409.6-409.6c-226.099 0-409.6 183.552-409.6 409.6s183.501 409.6 409.6 409.6zM439.447 375.603l253.44 253.44c19.968 19.968 52.429 19.968 72.397 0 19.968-20.019 19.968-52.429 0-72.448l-289.638-289.638c-19.968-19.968-52.429-19.968-72.397 0l-108.595 108.646c-20.019 19.968-20.019 52.429 0 72.397 19.968 19.968 52.378 19.968 72.397 0l72.397-72.397z" />
<glyph unicode="&#xe922;" glyph-name="yoast-small" d="M260.955 109.419c-66.065 0-118.916 52.852-118.916 118.916v388.129c0 66.065 52.852 118.916 118.916 118.916h317.11l16.516 44.594h-333.626c-89.187 0-161.858-72.671-161.858-163.51v-388.129c0-89.187 72.671-161.858 161.858-161.858h1.652l-1.652 42.942zM924.903 616.464c0 75.974-52.852 140.387-123.871 156.903l-14.865-41.29c54.503-11.561 94.142-59.458 94.142-115.613v-507.045h-333.626c-8.258-14.865-16.516-29.729-26.426-44.594h404.645v551.639zM323.716 107.767v-87.535c54.503 1.652 95.794 19.819 132.129 56.155s67.716 94.142 99.097 181.677l229.574 617.703h-112.31l-184.981-516.955-92.49 289.032h-102.4l137.084-346.839c13.213-33.032 13.213-71.019 0-104.052-14.865-36.335-39.639-77.626-105.703-89.187z" />
<glyph unicode="&#xe923;" glyph-name="terminal" horiz-adv-x="1170" d="M36.409 922.465c23.32 24.034 54.944 37.535 87.918 37.535s64.598-13.502 87.918-37.535l373.060-384.598c23.313-24.041 36.409-56.644 36.409-90.637 0-33.998-13.097-66.6-36.409-90.637l-373.060-384.598c-23.453-23.358-54.865-36.28-87.47-35.995-32.605 0.305-63.794 13.791-86.851 37.559s-36.135 55.921-36.417 89.534c-0.284 33.614 12.25 65.997 34.902 90.175l285.142 293.961-285.142 293.961c-23.313 24.041-36.409 56.644-36.409 90.637s13.097 66.596 36.409 90.637zM753.371 192c-34.915 0-68.409-13.491-93.095-37.491s-38.562-56.563-38.562-90.509c0-33.946 13.877-66.509 38.562-90.509s58.179-37.491 93.095-37.491h285.257c34.915 0 68.409 13.491 93.095 37.491s38.562 56.563 38.562 90.509c0 33.946-13.877 66.509-38.562 90.509s-58.179 37.491-93.095 37.491h-285.257z" />
<glyph unicode="&#xe924;" glyph-name="atarim-comments" horiz-adv-x="1280" d="M416 960c229.8 0 416-157.6 416-352s-186.2-352-416-352c-37.4 0-73.6 4.6-108.2 12.4-61.2-38-149.54-76.4-257.9-76.4-19.96 0-38.040 11.8-45.864 30.2-7.828 18.4-4.051 39.6 9.442 54 1.042 0.8 45.282 49 77.982 112-57.1 60.2-91.46 136.6-91.46 219.8 0 194.4 186.26 352 416 352zM329.2 363.8c29.2-8.4 58.4-11.8 86.8-11.8 176.4 0 320 114.8 320 256s-143.6 256-320 256c-176.4 0-320-114.8-320-256 0-70.4 35.42-122.4 65.14-153.8l47.060-49.8-31.58-60.6c-7.14-12-15.16-27.6-23.52-40.8 35.42 10.2 70.3 26 104.3 48.8l33.4 19 38.4-7zM883.2 703.6c220.8-8.4 396.8-162.6 396.8-351.6 0-83.2-34.4-159.6-91.4-219.8 32.6-63 76.8-111.2 78-112 13.4-14.4 17.2-35.6 7.6-54-6-18.4-24.2-30.2-44.2-30.2-108.2 0-196.6 38.4-257.8 76.4-34.6-7.8-70.8-12.4-108.2-12.4-164 0-305.8 80.4-373.6 197 34.6 4.6 67.8 12.4 99.4 23.2 56-74.4 158-124.2 274.2-124.2 28.4 0 57.6 3.4 86.8 11.8l38.4 7 33.4-19c34-22.8 68.8-38.6 104.4-48.8-8.4 13.2-16.4 28.8-23.6 40.8l-31.6 60.6 47 49.8c29.8 31.2 65.2 83.4 65.2 153.8 0 132.6-126.6 241.8-289.8 254.8l1.8 1.2c0 33-4.4 65-12.8 95.6v0z" />
<glyph unicode="&#x1f41e;" glyph-name="bug" horiz-adv-x="951" d="M932.571 402.286q0-14.857-10.857-25.714t-25.714-10.857h-128q0-97.714-38.286-165.714l118.857-119.429q10.857-10.857 10.857-25.714t-10.857-25.714q-10.286-10.857-25.714-10.857t-25.714 10.857l-113.143 112.571q-2.857-2.857-8.571-7.429t-24-16.286-37.143-20.857-46.857-16.571-55.429-7.429v512h-73.143v-512q-29.143 0-58 7.714t-49.714 18.857-37.714 22.286-24.857 18.571l-8.571 8-104.571-118.286q-11.429-12-27.429-12-13.714 0-24.571 9.143-10.857 10.286-11.714 25.429t8.857 26.571l115.429 129.714q-33.143 65.143-33.143 156.571h-128q-14.857 0-25.714 10.857t-10.857 25.714 10.857 25.714 25.714 10.857h128v168l-98.857 98.857q-10.857 10.857-10.857 25.714t10.857 25.714 25.714 10.857 25.714-10.857l98.857-98.857h482.286l98.857 98.857q10.857 10.857 25.714 10.857t25.714-10.857 10.857-25.714-10.857-25.714l-98.857-98.857v-168h128q14.857 0 25.714-10.857t10.857-25.714zM658.286 731.428h-365.714q0 76 53.429 129.429t129.429 53.429 129.429-53.429 53.429-129.429z" />
<glyph unicode="&#x1f4bb;" glyph-name="tablet-landscape" d="M32 960v-1024M64 960v-1024M96 960v-1024M128 960v-1024M160 960v-1024M192 960v-1024M224 960v-1024M256 960v-1024M288 960v-1024M320 960v-1024M352 960v-1024M384 960v-1024M416 960v-1024M448 960v-1024M480 960v-1024M512 960v-1024M544 960v-1024M576 960v-1024M608 960v-1024M640 960v-1024M672 960v-1024M704 960v-1024M736 960v-1024M768 960v-1024M800 960v-1024M832 960v-1024M864 960v-1024M896 960v-1024M928 960v-1024M960 960v-1024M992 960v-1024M0 928h1024M0 896h1024M0 864h1024M0 832h1024M0 800h1024M0 768h1024M0 736h1024M0 704h1024M0 672h1024M0 640h1024M0 608h1024M0 576h1024M0 544h1024M0 512h1024M0 480h1024M0 448h1024M0 416h1024M0 384h1024M0 352h1024M0 320h1024M0 288h1024M0 256h1024M0 224h1024M0 192h1024M0 160h1024M0 128h1024M0 96h1024M0 64h1024M0 32h1024M0 0h1024M0-32h1024M351 105h505.988c22.112 0 40.012 17.908 40.012 39.998v600.003c0 22.072-17.914 39.998-40.012 39.998h-505.988v-680zM251 105v680h-83.988c-22.112 0-40.012-17.908-40.012-39.998v-600.003c0-22.072 17.914-39.998 40.012-39.998h83.988zM937.009 885c33.132 0 59.991-26.877 59.991-60.010v-759.98c0-33.143-26.86-60.010-59.991-60.010h-850.017c-33.132 0-59.991 26.877-59.991 60.010v759.98c0 33.143 26.86 60.010 59.991 60.010h850.017z" />
<glyph unicode="&#x1f4f0;" glyph-name="template" d="M861.584 928h-696c-39.743 0-73.583-38.232-73.583-78.001v-258.001h840v258.001c0 39.768-30.624 78.001-70.417 78.001zM836 688.001h-648.001v98.257c0 30.6 27.456 45.744 58.032 45.744h535.128c30.577 0 54.84-15.144 54.84-45.744v-98.257zM162.392-32h696c39.768 0 73.608 38.232 73.608 78.001v450h-840v-450c0-39.768 30.6-78.001 70.393-78.001zM188 400h648.001v-290.256c0-30.6-27.48-45.744-58.056-45.744h-535.128c-30.577 0-54.816 15.144-54.816 45.744v290.256z" />
<glyph unicode="&#x1f4f1;" glyph-name="mobile-portrait" d="M32 960v-1024M64 960v-1024M96 960v-1024M128 960v-1024M160 960v-1024M192 960v-1024M224 960v-1024M256 960v-1024M288 960v-1024M320 960v-1024M352 960v-1024M384 960v-1024M416 960v-1024M448 960v-1024M480 960v-1024M512 960v-1024M544 960v-1024M576 960v-1024M608 960v-1024M640 960v-1024M672 960v-1024M704 960v-1024M736 960v-1024M768 960v-1024M800 960v-1024M832 960v-1024M864 960v-1024M896 960v-1024M928 960v-1024M960 960v-1024M992 960v-1024M0 928h1024M0 896h1024M0 864h1024M0 832h1024M0 800h1024M0 768h1024M0 736h1024M0 704h1024M0 672h1024M0 640h1024M0 608h1024M0 576h1024M0 544h1024M0 512h1024M0 480h1024M0 448h1024M0 416h1024M0 384h1024M0 352h1024M0 320h1024M0 288h1024M0 256h1024M0 224h1024M0 192h1024M0 160h1024M0 128h1024M0 96h1024M0 64h1024M0 32h1024M0 0h1024M0-32h1024M772 284v505.988c0 22.112-17.906 40.012-39.994 40.012h-440.012c-22.094 0-39.994-17.914-39.994-40.012v-505.988h520zM772 184h-520v-83.988c0-22.112 17.906-40.012 39.994-40.012h440.012c22.094 0 39.994 17.914 39.994 40.012v83.988zM152 870.009c0 33.132 26.857 59.991 59.994 59.991h600.011c33.134 0 59.994-26.86 59.994-59.991v-850.017c0-33.132-26.857-59.991-59.994-59.991h-600.011c-33.134 0-59.994 26.86-59.994 59.991v850.017z" />
<glyph unicode="&#x1f4f2;" glyph-name="mobile-landscape" d="M32 960v-1024M64 960v-1024M96 960v-1024M128 960v-1024M160 960v-1024M192 960v-1024M224 960v-1024M256 960v-1024M288 960v-1024M320 960v-1024M352 960v-1024M384 960v-1024M416 960v-1024M448 960v-1024M480 960v-1024M512 960v-1024M544 960v-1024M576 960v-1024M608 960v-1024M640 960v-1024M672 960v-1024M704 960v-1024M736 960v-1024M768 960v-1024M800 960v-1024M832 960v-1024M864 960v-1024M896 960v-1024M928 960v-1024M960 960v-1024M992 960v-1024M0 928h1024M0 896h1024M0 864h1024M0 832h1024M0 800h1024M0 768h1024M0 736h1024M0 704h1024M0 672h1024M0 640h1024M0 608h1024M0 576h1024M0 544h1024M0 512h1024M0 480h1024M0 448h1024M0 416h1024M0 384h1024M0 352h1024M0 320h1024M0 288h1024M0 256h1024M0 224h1024M0 192h1024M0 160h1024M0 128h1024M0 96h1024M0 64h1024M0 32h1024M0 0h1024M0-32h1024M351 185h505.988c22.112 0 40.012 17.906 40.012 39.994v440.012c0 22.094-17.914 39.994-40.012 39.994h-505.988v-520zM251 185v520h-83.988c-22.112 0-40.012-17.906-40.012-39.994v-440.012c0-22.094 17.914-39.994 40.012-39.994h83.988zM937.009 805c33.132 0 59.991-26.857 59.991-59.994v-600.011c0-33.134-26.86-59.994-59.991-59.994h-850.017c-33.132 0-59.991 26.857-59.991 59.994v600.011c0 33.134 26.86 59.994 59.991 59.994h850.017z" />
<glyph unicode="&#x1f4fa;" glyph-name="desktop" d="M32 960v-1024M64 960v-1024M96 960v-1024M128 960v-1024M160 960v-1024M192 960v-1024M224 960v-1024M256 960v-1024M288 960v-1024M320 960v-1024M352 960v-1024M384 960v-1024M416 960v-1024M448 960v-1024M480 960v-1024M512 960v-1024M544 960v-1024M576 960v-1024M608 960v-1024M640 960v-1024M672 960v-1024M704 960v-1024M736 960v-1024M768 960v-1024M800 960v-1024M832 960v-1024M864 960v-1024M896 960v-1024M928 960v-1024M960 960v-1024M992 960v-1024M0 928h1024M0 896h1024M0 864h1024M0 832h1024M0 800h1024M0 768h1024M0 736h1024M0 704h1024M0 672h1024M0 640h1024M0 608h1024M0 576h1024M0 544h1024M0 512h1024M0 480h1024M0 448h1024M0 416h1024M0 384h1024M0 352h1024M0 320h1024M0 288h1024M0 256h1024M0 224h1024M0 192h1024M0 160h1024M0 128h1024M0 96h1024M0 64h1024M0 32h1024M0 0h1024M0-32h1024M462 66h-150v-100h400v100h-150v114h329.99c33.132 0 60.010 26.858 60.010 59.99v630.021c0 33.131-26.867 59.99-60.010 59.99h-759.98c-33.132 0-60.010-26.858-60.010-59.99v-630.021c0-33.131 26.867-59.99 60.010-59.99h329.99v-114zM172 790.002c0 22.090 17.926 39.998 39.998 39.998h600.003c22.091 0 39.998-17.909 39.998-39.998v-470.005c0-22.090-17.926-39.998-39.998-39.998h-600.003c-22.091 0-39.998 17.909-39.998 39.998v470.005z" />
<glyph unicode="&#x1f512;" glyph-name="lock-stroke" horiz-adv-x="768" d="M448.128 960c-176.32 0-319.936-143.488-319.936-320v-64h-128.192v-448c0-105.76 86.24-192 191.936-192h384.064c106.016 0 192 86.24 192 192v512c0 176.512-143.488 320-319.872 320zM256.192 640c0 105.984 86.176 192 191.936 192 105.888 0 191.872-86.016 191.872-192v-64h-383.808v64zM576 64h-384.064c-35.264 0-64 28.736-64 64v320h512.064v-320c0-35.264-28.512-64-64-64zM448 256c0-35.264-28.736-64-64-64-35.488 0-64 28.736-64 64 0 35.488 28.512 64 64 64 35.264 0 64-28.512 64-64z" />
<glyph unicode="&#x1f513;" glyph-name="unlock-stroke" horiz-adv-x="768" d="M448.128 960c-176.448 0-319.936-143.616-319.936-320h128c0 105.76 86.048 192 191.936 192s191.872-86.24 191.872-192v-64h-640v-448c0-105.984 86.112-192 191.936-192h384.064c105.888 0 192 86.016 192 192v512c0 176.384-143.488 320-319.872 320zM576 64h-384.064c-35.264 0-64 28.64-64 64v320h512.064v-320c0-35.36-28.736-64-64-64zM448 256c0-35.488-28.64-64-64-64s-64 28.512-64 64c0 35.264 28.64 64 64 64s64-28.736 64-64z" />
<glyph unicode="&#x1f517;" glyph-name="link" d="M1005.248 941.248c-24.992 24.992-65.888 24.992-90.88 0l-130.24-130.368c-53.376 35.488-114.624 53.12-176.128 53.12-81.888 0-163.744-31.264-226.24-93.76l-192-192c-109.504-109.376-123.008-278.496-40.736-402.624l-130.24-130.368c-24.992-24.992-24.992-65.504 0-90.496 12.48-12.512 28.832-18.752 45.216-18.752s32.736 6.24 45.248 18.752l130.24 130.368c53.376-35.488 115.008-53.12 176.512-53.12 81.888 0 163.744 31.264 226.24 93.76l191.616 192c109.504 109.376 123.008 278.496 40.736 402.624l130.624 130.368c25.024 24.992 25.024 65.504 0.032 90.496zM799.616 544c0-51.264-20-99.488-56.256-135.744l-191.616-192c-36.256-36.256-84.48-56.256-135.744-56.256-28.992 0-56.736 7.136-82.24 19.264l95.488 95.488c24.992 24.992 24.992 65.504 0 90.496s-65.504 24.992-90.496 0l-95.488-95.488c-12.256 25.376-19.264 53.12-19.264 82.24 0 51.264 20 99.488 56.256 135.744l192 192c36.256 36.256 84.48 56.256 135.744 56.256 28.992 0 56.64-7.136 82.112-19.264l-97.376-97.504c-24.992-24.992-24.992-65.504 0-90.496 12.512-12.512 28.864-18.752 45.248-18.752 16.256 0 32.64 6.24 45.12 18.752l97.248 97.504c12.288-25.376 19.264-53.12 19.264-82.24z" />
<glyph unicode="&#x1f58d;" glyph-name="eyedropper" horiz-adv-x="1022" d="M948.96 522.112c99.872 99.808 99.872 261.76 0 361.504-49.888 49.888-115.36 74.88-180.736 74.88-65.312 0-130.816-24.992-180.672-74.88l-18.88-18.88-95.168 95.264-90.24-90.304 95.264-95.2-478.528-478.816v-231.936l125.76-127.744h237.248l476.832 476.992 92-92.064 90.368 90.24-92.128 92.064 18.88 18.88zM330.24 84.256c1.504 48.512-15.264 97.12-52.128 134.016-33.888 33.984-78.112 50.624-122.624 52.128l413.408 413.536 180.576-180.448-419.232-419.232z" />
<glyph unicode="&#x1f5a7;" glyph-name="multiple-devices" d="M32 960v-1024M64 960v-1024M96 960v-1024M128 960v-1024M160 960v-1024M192 960v-1024M224 960v-1024M256 960v-1024M288 960v-1024M320 960v-1024M352 960v-1024M384 960v-1024M416 960v-1024M448 960v-1024M480 960v-1024M512 960v-1024M544 960v-1024M576 960v-1024M608 960v-1024M640 960v-1024M672 960v-1024M704 960v-1024M736 960v-1024M768 960v-1024M800 960v-1024M832 960v-1024M864 960v-1024M896 960v-1024M928 960v-1024M960 960v-1024M992 960v-1024M0 928h1024M0 896h1024M0 864h1024M0 832h1024M0 800h1024M0 768h1024M0 736h1024M0 704h1024M0 672h1024M0 640h1024M0 608h1024M0 576h1024M0 544h1024M0 512h1024M0 480h1024M0 448h1024M0 416h1024M0 384h1024M0 352h1024M0 320h1024M0 288h1024M0 256h1024M0 224h1024M0 192h1024M0 160h1024M0 128h1024M0 96h1024M0 64h1024M0 32h1024M0 0h1024M0-32h1024M342 86h-110v-100h320v100h-110v34h250.006c33.138 0 59.994 26.859 59.994 59.99v470.019c0 33.13-26.86 59.99-59.994 59.99h-600.011c-33.138 0-59.994-26.859-59.994-59.99v-470.019c0-33.13 26.86-59.99 59.994-59.99h250.006v-34zM132 570.005c0 22.089 17.9 39.995 39.994 39.995h440.012c22.088 0 39.994-17.899 39.994-39.995v-310.010c0-22.089-17.9-39.995-39.994-39.995h-440.012c-22.088 0-39.994 17.899-39.994 39.995v310.010zM892 790.002c0 22.089-17.905 39.998-39.993 39.998h-220.015c-22.069 0-39.993-17.908-39.993-39.998v-80.002h-100v160.010c0 33.131 26.882 59.99 60.001 59.99h379.998c33.138 0 60.001-26.859 60.001-59.99v-630.021c0-33.131-26.882-59.99-60.001-59.99h-179.999v100h100.007c22.069 0 39.993 17.908 39.993 39.998v44.002h-140v100h140v326.002z" />
<glyph unicode="&#x1f5b3;" glyph-name="tablet-portrait" d="M32 960v-1024M64 960v-1024M96 960v-1024M128 960v-1024M160 960v-1024M192 960v-1024M224 960v-1024M256 960v-1024M288 960v-1024M320 960v-1024M352 960v-1024M384 960v-1024M416 960v-1024M448 960v-1024M480 960v-1024M512 960v-1024M544 960v-1024M576 960v-1024M608 960v-1024M640 960v-1024M672 960v-1024M704 960v-1024M736 960v-1024M768 960v-1024M800 960v-1024M832 960v-1024M864 960v-1024M896 960v-1024M928 960v-1024M960 960v-1024M992 960v-1024M0 928h1024M0 896h1024M0 864h1024M0 832h1024M0 800h1024M0 768h1024M0 736h1024M0 704h1024M0 672h1024M0 640h1024M0 608h1024M0 576h1024M0 544h1024M0 512h1024M0 480h1024M0 448h1024M0 416h1024M0 384h1024M0 352h1024M0 320h1024M0 288h1024M0 256h1024M0 224h1024M0 192h1024M0 160h1024M0 128h1024M0 96h1024M0 64h1024M0 32h1024M0 0h1024M0-32h1024M852 284v505.988c0 22.112-17.908 40.012-39.998 40.012h-600.003c-22.072 0-39.998-17.914-39.998-40.012v-505.988h680zM852 184h-680v-83.988c0-22.112 17.908-40.012 39.998-40.012h600.003c22.072 0 39.998 17.914 39.998 40.012v83.988zM72 870.009c0 33.132 26.877 59.991 60.010 59.991h759.98c33.143 0 60.010-26.86 60.010-59.991v-850.017c0-33.132-26.877-59.991-60.010-59.991h-759.98c-33.143 0-60.010 26.86-60.010 59.991v850.017z" />
<glyph unicode="&#x1f5c7;" glyph-name="copy" d="M706.943 704h-631.983c-39.792 0-42.96-8.88-42.96-48.656v-638.687c0-39.776 21.28-48.656 61.056-48.656h631.999c39.776 0 42.944 8.88 42.944 48.656v638.687c0 39.776-21.28 48.656-61.056 48.656zM644.608 64h-487.12c-30.576 0-29.488 9.808-29.488 40.4v463.2c0 30.593-3.2 40.4 27.392 40.4h487.104c30.593 0 29.504-9.808 29.504-40.4v-463.2c0-30.593 3.2-40.4-27.392-40.4zM930.943 927.999h-631.983c-39.792 0-42.96-8.88-42.96-48.656v-175.344h96v87.6c0 30.593-3.2 40.4 27.392 40.4h487.104c30.593 0 29.504-9.808 29.504-40.4v-463.2c0-30.593 3.2-40.4-27.392-40.4h-100.608v-96h181.040c39.792 0 42.96 8.88 42.96 48.656v638.687c0 39.776-21.28 48.656-61.056 48.656z" />
<glyph unicode="&#x1f5ca;" glyph-name="paste" d="M154.384-32h712c39.776 0 69.616 14.224 69.616 54v682h-848v-682c0-39.776 26.608-54 66.384-54zM184 608h656v-498.256c0-30.624-23.472-45.744-54.064-45.744h-551.12c-30.576 0-50.816 15.12-50.816 45.744v498.256zM88 874v-266h848v266c0 39.776-29.84 54-69.632 54h-712c-39.76 0-66.368-14.224-66.368-54zM184 786.256c0 30.608 20.24 45.744 50.816 45.744h567.12c30.592 0 38.064-15.136 38.064-45.744v-82.256h-656v82.256z" />
<glyph unicode="&#x1f5cb;" glyph-name="document-alt-stroke" horiz-adv-x="768" d="M448 960h-448v-1024h768v704.064l-320 319.936zM128 64v768h256v-256h256v-512h-512z" />
<glyph unicode="&#x1f5d1;" glyph-name="trash" d="M32 960v-1024M64 960v-1024M96 960v-1024M128 960v-1024M160 960v-1024M192 960v-1024M224 960v-1024M256 960v-1024M288 960v-1024M320 960v-1024M352 960v-1024M384 960v-1024M416 960v-1024M448 960v-1024M480 960v-1024M512 960v-1024M544 960v-1024M576 960v-1024M608 960v-1024M640 960v-1024M672 960v-1024M704 960v-1024M736 960v-1024M768 960v-1024M800 960v-1024M832 960v-1024M864 960v-1024M896 960v-1024M928 960v-1024M960 960v-1024M992 960v-1024M0 928h1024M0 896h1024M0 864h1024M0 832h1024M0 800h1024M0 768h1024M0 736h1024M0 704h1024M0 672h1024M0 640h1024M0 608h1024M0 576h1024M0 544h1024M0 512h1024M0 480h1024M0 448h1024M0 416h1024M0 384h1024M0 352h1024M0 320h1024M0 288h1024M0 256h1024M0 224h1024M0 192h1024M0 160h1024M0 128h1024M0 96h1024M0 64h1024M0 32h1024M0 0h1024M0-32h1024M882 608h80.017c16.55 0 29.983 13.43 29.983 29.997v260.006c0 16.553-13.424 29.997-29.983 29.997h-900.034c-16.55 0-29.983-13.43-29.983-29.997v-260.006c0-16.553 13.424-29.997 29.983-29.997h80.017v-609.996c0-16.582 13.424-30.004 29.983-30.004h680.034c16.547 0 29.983 13.433 29.983 30.004v609.996zM122 818.016c0 11.037 8.962 19.984 20.015 19.984h739.969c11.054 0 20.015-8.971 20.015-19.984v-100.032c0-11.037-8.962-19.984-20.015-19.984h-739.969c-11.054 0-20.015 8.971-20.015 19.984v100.032zM232 588.019c0 11.035 8.968 19.981 19.992 19.981h104.008v-550h-104.008c-11.041 0-19.992 8.946-19.992 19.981v510.037zM668 608h104.008c11.041 0 19.992-8.946 19.992-19.981v-510.037c0-11.035-8.968-19.981-19.992-19.981h-104.008v550zM446 608h132v-550h-132v550z" />
<glyph unicode="&#x1f5d7;" glyph-name="layers" horiz-adv-x="1022" d="M0 256l512.032-128 511.968 128v-128l-511.968-128-512.032 128zM0 512l512.032-128 511.968 128v-128l-511.968-128-512.032 128zM0 768l512.032 128 511.968-128v-128l-511.968-128-512.032 128z" />
<glyph unicode="&#x1f6e0;" glyph-name="cog" d="M1024 384.992v128l-152.992 63.744c-4.256 12-8.736 23.616-14.24 35.008l61.76 153.76-90.528 90.496-152.384-62.752c-11.616 5.632-23.488 10.368-35.744 14.752l-64.864 152h-128l-63.264-151.488c-12.736-4.512-24.992-9.248-37.12-15.008l-152.128 61.12-90.496-90.496 62.016-150.752c-6.016-12.384-10.88-24.992-15.52-38.016l-150.496-64.352v-128l150.624-62.752c4.64-12.992 9.632-25.632 15.616-38.016l-60.864-151.744 90.496-90.496 151.136 62.24c12.128-5.76 24.512-10.368 37.248-14.752l64.736-151.488h128l63.36 152.256c12.128 4.512 24.128 9.248 35.616 14.752l153.504-61.504 90.496 90.496-63.008 152.736c5.376 11.488 9.76 23.136 14.016 35.008l153.024 65.248zM511.008 256c-105.984 0-192 86.016-192 192s86.016 192 192 192 192-86.016 192-192-86.016-192-192-192z" />
</font>
</defs>
</svg>
